#TITLE:ダーリン I LOVE YOU;
#SUBTITLE:;
#ARTIST:Berrzy 工房;
#TITLETRANSLIT:;
#SUBTITLETRANSLIT:;
#ARTISTTRANSLIT:;
#CREDIT:;
#BANNER:` I LOVE YOU_logo.jpg;
#BACKGROUND:` I LOVE YOU_bg.jpg;
#LYRICSPATH:;
#CDTITLE:Lan.png;
#MUSIC:` I LOVE YOU.mp3;
#OFFSET:0.000;
#SAMPLESTART:100.000;
#SAMPLELENGTH:12.000;
#SELECTABLE:YES;
#BPMS:0.000=114.510;
#STOPS:;
#BGCHANGES:;
// cache tags:
#FIRSTBEAT:8.000;
#LASTBEAT:232.000;
#SONGFILENAME:Songs/lan sky/` I LOVE YOU/` I LOVE YOU.sm;
#HASMUSIC:1;
#HASBANNER:1;
#MUSICLENGTH:124.960;
// end cache tags

//---------------dance-single - sky----------------
#NOTES:
     dance-single:
     sky:
     Hard:
     8:
     0.824,0.812,1.000,0.144,0.460,501.000,200.000,18.000,0.000,38.000:

0000
0000
0000
0000
,
0000
0000
0000
0000
,
1000
0000
0100
0000
0010
0001
1000
0100
0001
0010
1000
0100
0010
0000
1000
0000
,
1212
1010
1010
1010
1010
1010
1010
1010
,
2323
0101
0101
0101
0101
0101
0101
0101
,
3232
1010
1010
1010
2303
0010
0100
0001
,
3210
0000
0001
0000
1000
0000
0010
0000
1000
0010
1000
0001
1300
0000
0010
0000
,
1100
0000
0000
0101
0000
0000
0000
0000
1010
0000
0000
0011
0000
0000
0000
0000
,
1100
0000
0000
0011
0000
0000
0000
0000
1001
0000
0000
0110
0001
1000
0010
0000
,
2100
0000
0001
0000
0100
0000
0010
0100
0001
0010
0100
0001
0010
0000
0011
0000
,
3120
0000
0001
0000
1000
0000
0100
0001
1000
0001
0100
1000
0100
0000
1001
0000
,
1031
0000
0000
0101
0000
0000
0000
0000
1010
0000
0000
1100
0000
0000
0000
0000
,
0011
0000
0000
1100
0000
0000
0000
0000
0110
0000
0000
1001
0000
0000
0000
0000
,
0021
0000
0100
0000
0001
0000
1000
0001
0100
1000
0001
0100
1000
0000
1100
0000
,
2031
0000
0100
0000
0010
0000
0001
0100
0010
0100
0001
0010
0001
0000
0110
0000
,
3110
1000
0001
0100
1000
0000
0110
0000
0011
0100
1000
0010
0001
0000
1100
0000
,
0101
0010
1000
0100
0010
0000
0101
0000
1100
0000
0011
0000
0110
0000
1100
0000
,
0110
0000
0001
0100
1010
0000
0100
0000
0011
0000
1000
0000
0101
0000
0010
0000
,
1100
0000
0001
1000
0110
0000
1000
0000
0011
0000
0100
0000
1010
0000
0100
0000
,
0101
0000
0010
1000
0110
0000
0001
0000
1100
0000
0010
0000
0011
0000
1000
0000
,
0110
0000
0001
1000
0101
0000
0010
0000
1010
0000
0100
0001
1100
0010
0001
0000
,
1010
0000
0001
0100
0011
0000
1000
0000
0101
0000
0010
0000
1100
0000
0001
0000
,
0110
0000
1000
0100
1001
0000
0100
0000
0011
0000
1000
0010
0101
0000
0010
0000
,
1100
0000
0001
0010
0101
0000
1000
0000
0110
0000
0001
0000
1010
0000
0100
0000
,
1010
0000
0100
0001
1100
0000
0010
0000
0101
0000
1000
0010
0100
0001
1000
0100
,
0010
0000
1000
0010
0100
0000
0001
0100
1010
0000
0000
0000
1100
0000
0000
0000
,
0011
0000
1000
0100
1010
0000
0100
0000
0011
0000
1000
0000
0011
0100
1000
0000
,
0101
0010
1000
0000
0011
1000
0100
0000
1001
0000
0110
0000
1001
0000
0110
0000
,
1100
0000
0001
0010
1100
0000
0001
0000
0110
0000
0001
0000
1010
0000
0100
0000
,
1100
0001
0010
0000
0110
0000
1000
0000
0101
0000
0000
0000
1010
0000
0000
0000
,
0110
0000
0001
1000
0101
0000
0010
0000
1100
0000
0001
0000
0011
0000
0100
0000
,
1100
0000
0010
0000
0101
0000
0010
0000
1010
0001
0100
0000
0011
0100
1000
0000
,
0011
1000
0110
0001
1100
0010
0101
0010
,
1000
0100
0001
0010
0001
0100
0010
1000
0110
0000
1000
0000
0100
0000
0000
0000
,
0011
0000
0100
0000
1100
0010
0001
0000
0110
0000
1000
0000
0011
1000
0100
0000
,
0011
0000
1000
0000
0110
0001
1000
0000
0101
0000
0010
0000
1100
0001
0010
0000
,
0101
0000
0010
0000
1100
0010
0001
0000
1001
0000
0100
0000
0011
1000
0100
0000
,
1010
0000
0001
0000
0110
1000
0100
0000
0011
0000
1000
0000
0100
0010
1001
0000
,
0110
0000
1000
0000
0011
1000
0100
0000
1010
0000
0100
0000
1001
0100
0010
0000
,
1100
0000
0001
0000
0110
1000
0001
0000
0101
0000
0010
0000
1010
0001
0100
0000
,
1100
0000
0001
0000
0101
1000
0010
0000
1100
0000
0001
0000
0110
0001
1000
0000
,
0110
0000
0001
0000
1100
0010
0001
0000
1010
0100
0001
0100
0011
0000
1000
0000
,
0110
0000
1000
0000
0101
0010
1000
0000
0011
0000
0100
0000
1001
0100
0010
0000
,
1100
0000
0001
0000
0110
1000
0001
0000
0011
0000
1000
0000
0110
1000
0001
0000
,
1100
0000
0001
0000
0011
1000
0100
0000
1001
0000
0100
0000
0011
1000
0100
0000
,
0011
0000
1000
0000
0110
0000
0001
0000
1000
0010
0100
0001
1000
0000
0110
0000
,
0011
0000
0000
1100
0000
0000
0000
0000
0110
0000
0000
0011
0000
0000
0000
0000
,
1010
0000
0000
0101
0000
0000
0000
0000
0011
0000
0000
1000
0100
0001
0010
0000
,
2010
0000
0100
0000
0010
0000
0001
0010
0100
0001
0010
0100
0001
0000
0101
0000
,
3012
0000
0100
0000
1000
0000
0010
0100
1000
0100
0010
1000
0010
0000
1100
0000
,
1103
0000
0000
1010
0000
0000
0000
0000
0101
0000
0000
1001
0000
0000
0000
0000
,
0110
0000
0000
1001
0000
0000
0000
0000
0110
0000
0000
1001
0100
0010
0100
0000
,
0021
0000
0100
0000
0001
0000
1000
0001
0100
1000
0001
0100
1000
0000
1100
0000
,
2031
0000
0100
0000
0010
0000
0001
0100
0010
0100
0001
0010
0001
0000
0110
0000
,
3110
1000
0001
0100
1000
0000
0110
0000
0011
0100
1000
0010
0001
0000
1100
0000
,
0101
0010
1000
0100
0010
0000
0101
0000
1100
0000
0011
0000
0110
0000
1100
0000
,
0022
0000
0000
0000
,
0000
0000
0000
0000
,
0033
0000
0000
0000
;
